Главная Торренты / Файлы Топ раздачи Персоны кино Форум Войти Восстановить Пароль Регистрация Служба техподдержки 

Привет, Гость

Войти на сайт
Регистрация
Восстановить Пароль

Спасибо Вам
Мы благодарны этим людям в поддержке сайта:
Нет данных для показа
Попади и ты в этот блок, поставь оценку 5 и получи 500 MB к отдаче:
Войти на сайт сейчас.

Наша группа в ВК

Поделитесь в социальных сетях


Популярные персоны кино из торрент-раздачи

:: Детали раздачи

Великолепная семерка: Квадрология / Magnificent Seven Collection (1960-1972) BDRip 1080p | D, P, A

Скачать Скачать .torrent файл (основная ссылка для скачивания файла)
Смотреть / Слушать онлайн просмотр (ссылка для просмотра файла через плагин 'Torrent Stream')
Magnet-ссылка (альтернативная ссылка для скачивания файла)
Теги / Метки приключения, вестерн, 1960 [автодобавление тега(ов)]
Описание
Великолепная семерка / The Magnificent Seven (1960) BDRip 1080p:
General
Unique ID : 232853118736688001777555586103008544606 (0xAF2DE1207B88778DA273A232151BC75E)
Complete name : F:Torrent 21960-1972.Magnificent.Seven.renta231960 Великолепная семёрка.mkv
Format : Matroska
Format version : Version 4 / Version 2
File size : 13.4 GiB
Duration : 2 h 8 min
Overall bit rate : 14.9 Mb/s
Movie name : 1960 Великолепная семёрка / renta23
Encoded date : UTC 2016-08-26 13:34:30
Writing application : mkvmerge v8.3.0 ('Over the Horizon') 64bit
Writing library : libebml v1.3.1 + libmatroska v1.4.2

Video
ID : 1
Format : AVC
Format/Info : Advanced Video Codec
Format profile : High@L4.1
Format settings, CABAC : Yes
Format settings, ReFrames : 5 frames
Codec ID : V_MPEG4/ISO/AVC
Duration : 2 h 8 min
Bit rate : 12.0 Mb/s
Width : 1 920 pixels
Height : 824 pixels
Display aspect ratio : 2.35:1
Frame rate mode : Constant
Frame rate : 23.976 (24000/1001) FPS
Color space : YUV
Chroma subsampling : 4:2:0
Bit depth : 8 bits
Scan type : Progressive
Bits/(Pixel*Frame) : 0.316
Stream size : 10.7 GiB (80%)
Title : 1960 Великолепная семёрка
Writing library : x264 core 146 r2538 121396c
Encoding settings : cabac=1 / ref=5 / deblock=1:-1:-1 / analyse=0x3:0x133 / me=umh / subme=11 / psy=1 / psy_rd=1.07:0.23 / mixed_ref=1 / me_range=24 / chroma_me=1 / trellis=2 / 8x8dct=1 / cqm=0 / deadzone=21,11 / fast_pskip=0 / chroma_qp_offset=-3 / threads=12 / lookahead_threads=3 / sliced_threads=0 / nr=0 / decimate=1 / interlaced=0 / bluray_compat=0 / constrained_intra=0 / bframes=10 / b_pyramid=2 / b_adapt=2 / b_bias=0 / direct=3 / weightb=1 / open_gop=0 / weightp=2 / keyint=250 / keyint_min=23 / scenecut=40 / intra_refresh=0 / rc=2pass / mbtree=0 / bitrate=12000 / ratetol=1.0 / qcomp=0.60 / qpmin=0 / qpmax=69 / qpstep=4 / cplxblur=20.0 / qblur=0.5 / ip_ratio=1.40 / pb_ratio=1.30 / aq=2:1.00
Language : English
Default : Yes
Forced : No

Audio #1
ID : 2
Format : AC-3
Format/Info : Audio Coding 3
Mode extension : CM (complete main)
Format settings, Endianness : Big
Codec ID : A_AC3
Duration : 2 h 8 min
Bit rate mode : Constant
Bit rate : 192 kb/s
Channel(s) : 2 channels
Channel positions : Front: L R
Sampling rate : 48.0 kHz
Frame rate : 31.250 FPS (1536 spf)
Compression mode : Lossy
Stream size : 176 MiB (1%)
Title : Советский дубляж
Language : Russian
Default : Yes
Forced : No

Audio #2
ID : 3
Format : AC-3
Format/Info : Audio Coding 3
Mode extension : CM (complete main)
Format settings, Endianness : Big
Codec ID : A_AC3
Duration : 2 h 8 min
Bit rate mode : Constant
Bit rate : 448 kb/s
Channel(s) : 6 channels
Channel positions : Front: L C R, Side: L R, LFE
Sampling rate : 48.0 kHz
Frame rate : 31.250 FPS (1536 spf)
Compression mode : Lossy
Stream size : 410 MiB (3%)
Title : Дубляж, Blu-ray CEE
Language : Russian
Default : No
Forced : No

Audio #3
ID : 4
Format : AC-3
Format/Info : Audio Coding 3
Mode extension : CM (complete main)
Format settings, Endianness : Big
Codec ID : A_AC3
Duration : 2 h 8 min
Bit rate mode : Constant
Bit rate : 448 kb/s
Channel(s) : 6 channels
Channel positions : Front: L C R, Side: L R, LFE
Sampling rate : 48.0 kHz
Frame rate : 31.250 FPS (1536 spf)
Compression mode : Lossy
Stream size : 410 MiB (3%)
Title : Многоголосый, SomeWax
Language : Russian
Default : No
Forced : No

Audio #4
ID : 5
Format : AC-3
Format/Info : Audio Coding 3
Mode extension : CM (complete main)
Format settings, Endianness : Big
Codec ID : A_AC3
Duration : 2 h 8 min
Bit rate mode : Constant
Bit rate : 448 kb/s
Channel(s) : 6 channels
Channel positions : Front: L C R, Side: L R, LFE
Sampling rate : 48.0 kHz
Frame rate : 31.250 FPS (1536 spf)
Compression mode : Lossy
Stream size : 410 MiB (3%)
Title : Многоголосый, DVD Магия
Language : Russian
Default : No
Forced : No

Audio #5
ID : 6
Format : AC-3
Format/Info : Audio Coding 3
Mode extension : CM (complete main)
Format settings, Endianness : Big
Codec ID : A_AC3
Duration : 2 h 8 min
Bit rate mode : Constant
Bit rate : 192 kb/s
Channel(s) : 2 channels
Channel positions : Front: L R
Sampling rate : 48.0 kHz
Frame rate : 31.250 FPS (1536 spf)
Compression mode : Lossy
Stream size : 176 MiB (1%)
Title : Многоголосый, НТВ
Language : Russian
Default : No
Forced : No

Audio #6
ID : 7
Format : AC-3
Format/Info : Audio Coding 3
Mode extension : CM (complete main)
Format settings, Endianness : Big
Codec ID : A_AC3
Duration : 2 h 8 min
Bit rate mode : Constant
Bit rate : 192 kb/s
Channel(s) : 2 channels
Channel positions : Front: L R
Sampling rate : 48.0 kHz
Frame rate : 31.250 FPS (1536 spf)
Compression mode : Lossy
Stream size : 176 MiB (1%)
Title : Одноголосый, А. Михалев
Language : Russian
Default : No
Forced : No

Audio #7
ID : 8
Format : AC-3
Format/Info : Audio Coding 3
Mode extension : CM (complete main)
Format settings, Endianness : Big
Codec ID : A_AC3
Duration : 2 h 8 min
Bit rate mode : Constant
Bit rate : 192 kb/s
Channel(s) : 2 channels
Channel positions : Front: L R
Sampling rate : 48.0 kHz
Frame rate : 31.250 FPS (1536 spf)
Compression mode : Lossy
Stream size : 176 MiB (1%)
Title : Одноголосый, А. Гаврилов
Language : Russian
Default : No
Forced : No

Audio #8
ID : 9
Format : AC-3
Format/Info : Audio Coding 3
Mode extension : CM (complete main)
Format settings, Endianness : Big
Codec ID : A_AC3
Duration : 2 h 8 min
Bit rate mode : Constant
Bit rate : 192 kb/s
Channel(s) : 2 channels
Channel positions : Front: L R
Sampling rate : 48.0 kHz
Frame rate : 31.250 FPS (1536 spf)
Compression mode : Lossy
Stream size : 176 MiB (1%)
Title : Одноголосый, М. Иванов (поздний перевод)
Language : Russian
Default : No
Forced : No

Audio #9
ID : 10
Format : AC-3
Format/Info : Audio Coding 3
Mode extension : CM (complete main)
Format settings, Endianness : Big
Codec ID : A_AC3
Duration : 2 h 8 min
Bit rate mode : Constant
Bit rate : 192 kb/s
Channel(s) : 2 channels
Channel positions : Front: L R
Sampling rate : 48.0 kHz
Frame rate : 31.250 FPS (1536 spf)
Compression mode : Lossy
Stream size : 176 MiB (1%)
Title : Одноголосый, В. Горчаков (поздний перевод)
Language : Russian
Default : No
Forced : No

Audio #10
ID : 11
Format : AC-3
Format/Info : Audio Coding 3
Mode extension : CM (complete main)
Format settings, Endianness : Big
Codec ID : A_AC3
Duration : 2 h 8 min
Bit rate mode : Constant
Bit rate : 448 kb/s
Channel(s) : 6 channels
Channel positions : Front: L C R, Side: L R, LFE
Sampling rate : 48.0 kHz
Frame rate : 31.250 FPS (1536 spf)
Compression mode : Lossy
Stream size : 410 MiB (3%)
Language : English
Default : No
Forced : No

Text #1
ID : 12
Format : UTF-8
Codec ID : S_TEXT/UTF8
Codec ID/Info : UTF-8 Plain Text
Duration : 2 h 7 min
Bit rate : 52 b/s
Count of elements : 892
Stream size : 49.3 KiB (0%)
Title : Blu-ray CEE
Language : Russian
Default : No
Forced : No

Text #2
ID : 13
Format : UTF-8
Codec ID : S_TEXT/UTF8
Codec ID/Info : UTF-8 Plain Text
Duration : 2 h 5 min
Bit rate : 69 b/s
Count of elements : 1315
Stream size : 64.3 KiB (0%)
Language : Russian
Default : No
Forced : No

Text #3
ID : 14
Format : UTF-8
Codec ID : S_TEXT/UTF8
Codec ID/Info : UTF-8 Plain Text
Duration : 2 h 5 min
Bit rate : 43 b/s
Count of elements : 1141
Stream size : 39.9 KiB (0%)
Language : English
Default : No
Forced : No

Menu
00:00:00.000 : en:Main Title
00:02:07.919 : en:The Raid
00:09:36.325 : en:Shotgun on a Hearse
00:19:09.773 : en:The Magnificent Two
00:30:50.473 : en:The Gang Takes Shape
00:41:23.522 : en:Go South, Young Men
00:48:44.921 : en:Spies at the Fiesta
00:57:01.417 : en:Readying for Battle
01:09:17.736 : en:The First Fight
01:17:28.644 : en:That Dying Feeling
01:25:41.261 : en:In the Enemy Camp
01:30:50.278 : en:An Argument for Fear
01:44:07.074 : en:"Buenas Noches!"
01:52:11.433 : en:Going Back?
01:55:11.613 : en:The Last Fight
02:04:36.927 : en:Moving on/the End



http://i80.fastpic.ru/thumb/2016/0828/41/063586266a90c4b90f095812b5077441.jpeg
http://i80.fastpic.ru/thumb/2016/0828/2f/2ba1859f6008403c7c41858ca0229d2f.jpeg
http://i79.fastpic.ru/thumb/2016/0828/1f/e860cd56edcb49c83ba2c56b03a8121f.jpeg
http://i79.fastpic.ru/thumb/2016/0828/61/52f34ec9fcc6fda3a128cdf42cc59861.jpeg

http://i80.fastpic.ru/thumb/2016/0828/f1/d3835cd8b2683c842117a4e5a5795af1.jpeg
http://i79.fastpic.ru/thumb/2016/0828/24/3d65cd85d7a2a02c4703014cecfc7024.jpeg
http://i77.fastpic.ru/thumb/2016/0828/64/b1086e656643e4500aed193666f36c64.jpeg
http://i80.fastpic.ru/thumb/2016/0828/43/37264d7625ec6b170440d2a6480da543.jpeg



Возвращение великолепной семерки / Return Of The Magnificent Seven (1966) BDRip 1080p:
General
Unique ID : 237367365473500889082484791690118287398 (0xB2934AACC1F4DB80A92179F15337D026)
Complete name : F:Torrent 21960-1972.Magnificent.Seven.renta231966 Возвращение великолепной семерки.mkv
Format : Matroska
Format version : Version 4 / Version 2
File size : 8.39 GiB
Duration : 1 h 35 min
Overall bit rate : 12.5 Mb/s
Movie name : 1966 Возвращение великолепной семерки / renta23
Encoded date : UTC 2016-08-27 13:49:38
Writing application : mkvmerge v8.3.0 ('Over the Horizon') 64bit
Writing library : libebml v1.3.1 + libmatroska v1.4.2

Video
ID : 1
Format : AVC
Format/Info : Advanced Video Codec
Format profile : High@L4.1
Format settings, CABAC : Yes
Format settings, ReFrames : 5 frames
Codec ID : V_MPEG4/ISO/AVC
Duration : 1 h 35 min
Bit rate : 11.0 Mb/s
Width : 1 920 pixels
Height : 824 pixels
Display aspect ratio : 2.35:1
Frame rate mode : Constant
Frame rate : 23.976 (24000/1001) FPS
Color space : YUV
Chroma subsampling : 4:2:0
Bit depth : 8 bits
Scan type : Progressive
Bits/(Pixel*Frame) : 0.290
Stream size : 7.36 GiB (88%)
Title : 1966 Возвращение великолепной семерки
Writing library : x264 core 146 r2538 121396c
Encoding settings : cabac=1 / ref=5 / deblock=1:-1:-1 / analyse=0x3:0x133 / me=umh / subme=11 / psy=1 / psy_rd=1.07:0.23 / mixed_ref=1 / me_range=24 / chroma_me=1 / trellis=2 / 8x8dct=1 / cqm=0 / deadzone=21,11 / fast_pskip=0 / chroma_qp_offset=-3 / threads=12 / lookahead_threads=3 / sliced_threads=0 / nr=0 / decimate=1 / interlaced=0 / bluray_compat=0 / constrained_intra=0 / bframes=10 / b_pyramid=2 / b_adapt=2 / b_bias=0 / direct=3 / weightb=1 / open_gop=0 / weightp=2 / keyint=250 / keyint_min=23 / scenecut=40 / intra_refresh=0 / rc=2pass / mbtree=0 / bitrate=11000 / ratetol=1.0 / qcomp=0.60 / qpmin=0 / qpmax=69 / qpstep=4 / cplxblur=20.0 / qblur=0.5 / ip_ratio=1.40 / pb_ratio=1.30 / aq=2:1.00
Language : English
Default : Yes
Forced : No

Audio #1
ID : 2
Format : AC-3
Format/Info : Audio Coding 3
Mode extension : CM (complete main)
Format settings, Endianness : Big
Codec ID : A_AC3
Duration : 1 h 35 min
Bit rate mode : Constant
Bit rate : 448 kb/s
Channel(s) : 6 channels
Channel positions : Front: L C R, Side: L R, LFE
Sampling rate : 48.0 kHz
Frame rate : 31.250 FPS (1536 spf)
Compression mode : Lossy
Stream size : 307 MiB (4%)
Title : Многоголосый, SomeWax
Language : Russian
Default : Yes
Forced : No

Audio #2
ID : 3
Format : AC-3
Format/Info : Audio Coding 3
Mode extension : CM (complete main)
Format settings, Endianness : Big
Codec ID : A_AC3
Duration : 1 h 35 min
Bit rate mode : Constant
Bit rate : 448 kb/s
Channel(s) : 6 channels
Channel positions : Front: L C R, Side: L R, LFE
Sampling rate : 48.0 kHz
Frame rate : 31.250 FPS (1536 spf)
Compression mode : Lossy
Stream size : 307 MiB (4%)
Title : Многоголосый, DVD Магия
Language : Russian
Default : No
Forced : No

Audio #3
ID : 4
Format : AC-3
Format/Info : Audio Coding 3
Mode extension : CM (complete main)
Format settings, Endianness : Big
Codec ID : A_AC3
Duration : 1 h 35 min
Bit rate mode : Constant
Bit rate : 192 kb/s
Channel(s) : 2 channels
Channel positions : Front: L R
Sampling rate : 48.0 kHz
Frame rate : 31.250 FPS (1536 spf)
Compression mode : Lossy
Stream size : 132 MiB (2%)
Title : Одноголосый, М. Иванов
Language : Russian
Default : No
Forced : No

Audio #4
ID : 5
Format : AC-3
Format/Info : Audio Coding 3
Mode extension : CM (complete main)
Format settings, Endianness : Big
Codec ID : A_AC3
Duration : 1 h 35 min
Bit rate mode : Constant
Bit rate : 448 kb/s
Channel(s) : 6 channels
Channel positions : Front: L C R, Side: L R, LFE
Sampling rate : 48.0 kHz
Frame rate : 31.250 FPS (1536 spf)
Compression mode : Lossy
Stream size : 307 MiB (4%)
Language : English
Default : No
Forced : No

Text #1
ID : 6
Format : UTF-8
Codec ID : S_TEXT/UTF8
Codec ID/Info : UTF-8 Plain Text
Duration : 1 h 34 min
Bit rate : 53 b/s
Count of elements : 794
Stream size : 37.2 KiB (0%)
Language : Russian
Default : No
Forced : No

Text #2
ID : 7
Format : UTF-8
Codec ID : S_TEXT/UTF8
Codec ID/Info : UTF-8 Plain Text
Duration : 1 h 31 min
Bit rate : 37 b/s
Count of elements : 798
Stream size : 25.0 KiB (0%)
Language : English
Default : No
Forced : No

Text #3
ID : 8
Format : UTF-8
Codec ID : S_TEXT/UTF8
Codec ID/Info : UTF-8 Plain Text
Duration : 1 h 32 min
Bit rate : 37 b/s
Count of elements : 826
Stream size : 25.7 KiB (0%)
Title : SDH
Language : English
Default : No
Forced : No

Menu
00:00:00.000 : en:Chapter 01
00:07:23.776 : en:Chapter 02
00:12:40.301 : en:Chapter 03
00:16:49.216 : en:Chapter 04
00:22:17.586 : en:Chapter 05
00:28:41.720 : en:Chapter 06
00:35:04.102 : en:Chapter 07
00:38:49.952 : en:Chapter 08
00:45:43.073 : en:Chapter 09
00:53:51.186 : en:Chapter 10
01:00:22.744 : en:Chapter 11
01:07:47.188 : en:Chapter 12
01:14:25.878 : en:Chapter 13
01:16:50.439 : en:Chapter 14
01:22:29.778 : en:Chapter 15
01:32:59.699 : en:Chapter 16



http://i80.fastpic.ru/thumb/2016/0828/cd/0e5ed59d2b53b7ea883d7768a763cdcd.jpeg
http://i78.fastpic.ru/thumb/2016/0828/32/89b2b56b3c58787409b1209504d3d632.jpeg
http://i78.fastpic.ru/thumb/2016/0828/84/7728c7861b19b356472a6e3d75834584.jpeg
http://i78.fastpic.ru/thumb/2016/0828/af/9126b4ebe126913cf51f319d8d52a0af.jpeg

http://i78.fastpic.ru/thumb/2016/0828/d5/cd356c687210c2ed7bc70a9bf99440d5.jpeg
http://i77.fastpic.ru/thumb/2016/0828/4c/0e11062875fee18cf6817f1efcc3934c.jpeg
http://i78.fastpic.ru/thumb/2016/0828/ad/856b287eff44808d91e13a102819c1ad.jpeg
http://i79.fastpic.ru/thumb/2016/0828/01/f21ac6c570536b621c6fa583d812d801.jpeg



Ружья великолепной семерки / Guns Of The Magnificent Seven (1969) BDRip 1080p:
General
Unique ID : 218638892498666901582187490339173641582 (0xA47C51AA72C2DAEDB997FAC299BB2D6E)
Complete name : F:Torrent 21960-1972.Magnificent.Seven.renta231969 Ружья великолепной семерки.mkv
Format : Matroska
Format version : Version 4 / Version 2
File size : 8.95 GiB
Duration : 1 h 46 min
Overall bit rate : 12.1 Mb/s
Movie name : 1969 Ружья великолепной семерки / renta23
Encoded date : UTC 2016-08-25 12:19:27
Writing application : mkvmerge v8.3.0 ('Over the Horizon') 64bit
Writing library : libebml v1.3.1 + libmatroska v1.4.2

Video
ID : 1
Format : AVC
Format/Info : Advanced Video Codec
Format profile : High@L4.1
Format settings, CABAC : Yes
Format settings, ReFrames : 5 frames
Codec ID : V_MPEG4/ISO/AVC
Duration : 1 h 46 min
Bit rate : 11.0 Mb/s
Width : 1 920 pixels
Height : 816 pixels
Display aspect ratio : 2.35:1
Frame rate mode : Constant
Frame rate : 23.976 (24000/1001) FPS
Color space : YUV
Chroma subsampling : 4:2:0
Bit depth : 8 bits
Scan type : Progressive
Bits/(Pixel*Frame) : 0.293
Stream size : 8.14 GiB (91%)
Title : 1969 Ружья великолепной семерки
Writing library : x264 core 146 r2538 121396c
Encoding settings : cabac=1 / ref=5 / deblock=1:-1:-1 / analyse=0x3:0x133 / me=umh / subme=11 / psy=1 / psy_rd=1.07:0.23 / mixed_ref=1 / me_range=24 / chroma_me=1 / trellis=2 / 8x8dct=1 / cqm=0 / deadzone=21,11 / fast_pskip=0 / chroma_qp_offset=-3 / threads=12 / lookahead_threads=3 / sliced_threads=0 / nr=0 / decimate=1 / interlaced=0 / bluray_compat=0 / constrained_intra=0 / bframes=10 / b_pyramid=2 / b_adapt=2 / b_bias=0 / direct=3 / weightb=1 / open_gop=0 / weightp=2 / keyint=250 / keyint_min=23 / scenecut=40 / intra_refresh=0 / rc=2pass / mbtree=0 / bitrate=11000 / ratetol=1.0 / qcomp=0.60 / qpmin=0 / qpmax=69 / qpstep=4 / cplxblur=20.0 / qblur=0.5 / ip_ratio=1.40 / pb_ratio=1.30 / aq=2:1.00
Language : English
Default : Yes
Forced : No

Audio #1
ID : 2
Format : AC-3
Format/Info : Audio Coding 3
Mode extension : CM (complete main)
Format settings, Endianness : Big
Codec ID : A_AC3
Duration : 1 h 46 min
Bit rate mode : Constant
Bit rate : 448 kb/s
Channel(s) : 6 channels
Channel positions : Front: L C R, Side: L R, LFE
Sampling rate : 48.0 kHz
Frame rate : 31.250 FPS (1536 spf)
Compression mode : Lossy
Stream size : 340 MiB (4%)
Title : Многоголосый, SomeWax
Language : Russian
Default : Yes
Forced : No

Audio #2
ID : 3
Format : AC-3
Format/Info : Audio Coding 3
Mode extension : CM (complete main)
Format settings, Endianness : Big
Codec ID : A_AC3
Duration : 1 h 46 min
Bit rate mode : Constant
Bit rate : 192 kb/s
Channel(s) : 2 channels
Channel positions : Front: L R
Sampling rate : 48.0 kHz
Frame rate : 31.250 FPS (1536 spf)
Compression mode : Lossy
Stream size : 146 MiB (2%)
Title : Многоголосый, DVD Магия
Language : Russian
Default : No
Forced : No

Audio #3
ID : 4
Format : AC-3
Format/Info : Audio Coding 3
Mode extension : CM (complete main)
Format settings, Endianness : Big
Codec ID : A_AC3
Duration : 1 h 46 min
Bit rate mode : Constant
Bit rate : 448 kb/s
Channel(s) : 6 channels
Channel positions : Front: L C R, Side: L R, LFE
Sampling rate : 48.0 kHz
Frame rate : 31.250 FPS (1536 spf)
Compression mode : Lossy
Stream size : 340 MiB (4%)
Language : English
Default : No
Forced : No

Text #1
ID : 5
Format : UTF-8
Codec ID : S_TEXT/UTF8
Codec ID/Info : UTF-8 Plain Text
Duration : 1 h 43 min
Bit rate : 42 b/s
Count of elements : 710
Stream size : 32.3 KiB (0%)
Language : Russian
Default : No
Forced : No

Text #2
ID : 6
Format : UTF-8
Codec ID : S_TEXT/UTF8
Codec ID/Info : UTF-8 Plain Text
Duration : 1 h 44 min
Bit rate : 34 b/s
Count of elements : 1125
Stream size : 26.2 KiB (0%)
Language : English
Default : No
Forced : No

Menu
00:00:00.000 : en:Chapter 01
00:07:18.771 : en:Chapter 02
00:13:47.701 : en:Chapter 03
00:18:57.928 : en:Chapter 04
00:26:53.528 : en:Chapter 05
00:33:53.031 : en:Chapter 06
00:40:25.840 : en:Chapter 07
00:47:57.833 : en:Chapter 08
00:52:27.435 : en:Chapter 09
00:59:51.170 : en:Chapter 10
01:06:37.201 : en:Chapter 11
01:13:24.024 : en:Chapter 12
01:19:18.420 : en:Chapter 13
01:24:39.949 : en:Chapter 14
01:30:47.859 : en:Chapter 15
01:38:54.261 : en:Chapter 16



http://i80.fastpic.ru/thumb/2016/0828/40/2457e0d97ca9235f4b910f8180f15e40.jpeg
http://i77.fastpic.ru/thumb/2016/0828/07/ee84ad818b274965ecd1909b9e8b2f07.jpeg
http://i79.fastpic.ru/thumb/2016/0828/74/01b1f559e6ab87bcb80c69415c3ea674.jpeg
http://i79.fastpic.ru/thumb/2016/0828/5b/36173798a05b5c8541e839b4baac705b.jpeg

http://i78.fastpic.ru/thumb/2016/0828/b4/2121dc632167bbee581b6bdea5c4dcb4.jpeg
http://i78.fastpic.ru/thumb/2016/0828/07/964a15c391d9e3af5eb58323bead9c07.jpeg
http://i77.fastpic.ru/thumb/2016/0828/fd/d05b78ca0e52d932c2d853812d6e09fd.jpeg
http://i80.fastpic.ru/thumb/2016/0828/70/115d785b14fa163edecc363bf44b7470.jpeg



Великолепная семерка снова в седле / The Magnificent Seven Ride! (1972) BDRip 1080p:
General
Unique ID : 198512494571344823105527965154722189452 (0x95581DA2A4CA977C9CA3E7E27964108C)
Complete name : F:Torrent 21960-1972.Magnificent.Seven.renta231972 Великолепная семерка снова в седле.mkv
Format : Matroska
Format version : Version 4 / Version 2
File size : 8.47 GiB
Duration : 1 h 40 min
Overall bit rate : 12.1 Mb/s
Movie name : 1972 Великолепная семерка снова в седле / renta23
Encoded date : UTC 2016-08-28 10:28:40
Writing application : mkvmerge v8.3.0 ('Over the Horizon') 64bit
Writing library : libebml v1.3.1 + libmatroska v1.4.2

Video
ID : 1
Format : AVC
Format/Info : Advanced Video Codec
Format profile : High@L4.1
Format settings, CABAC : Yes
Format settings, ReFrames : 4 frames
Codec ID : V_MPEG4/ISO/AVC
Duration : 1 h 40 min
Bit rate : 11.0 Mb/s
Width : 1 920 pixels
Height : 1 040 pixels
Display aspect ratio : 1.85:1
Frame rate mode : Constant
Frame rate : 23.976 (24000/1001) FPS
Color space : YUV
Chroma subsampling : 4:2:0
Bit depth : 8 bits
Scan type : Progressive
Bits/(Pixel*Frame) : 0.230
Stream size : 7.70 GiB (91%)
Title : 1972 Великолепная семерка снова в седле
Writing library : x264 core 146 r2538 121396c
Encoding settings : cabac=1 / ref=4 / deblock=1:-1:-1 / analyse=0x3:0x133 / me=umh / subme=11 / psy=1 / psy_rd=1.07:0.23 / mixed_ref=1 / me_range=32 / chroma_me=1 / trellis=2 / 8x8dct=1 / cqm=0 / deadzone=21,11 / fast_pskip=0 / chroma_qp_offset=-3 / threads=12 / lookahead_threads=3 / sliced_threads=0 / nr=0 / decimate=1 / interlaced=0 / bluray_compat=0 / constrained_intra=0 / bframes=12 / b_pyramid=2 / b_adapt=2 / b_bias=0 / direct=3 / weightb=1 / open_gop=0 / weightp=2 / keyint=250 / keyint_min=23 / scenecut=40 / intra_refresh=0 / rc=2pass / mbtree=0 / bitrate=11000 / ratetol=1.0 / qcomp=0.60 / qpmin=0 / qpmax=69 / qpstep=4 / cplxblur=20.0 / qblur=0.5 / ip_ratio=1.40 / pb_ratio=1.30 / aq=2:1.00
Language : English
Default : Yes
Forced : No

Audio #1
ID : 2
Format : AC-3
Format/Info : Audio Coding 3
Mode extension : CM (complete main)
Format settings, Endianness : Big
Codec ID : A_AC3
Duration : 1 h 40 min
Bit rate mode : Constant
Bit rate : 448 kb/s
Channel(s) : 6 channels
Channel positions : Front: L C R, Side: L R, LFE
Sampling rate : 48.0 kHz
Frame rate : 31.250 FPS (1536 spf)
Compression mode : Lossy
Stream size : 321 MiB (4%)
Title : Многоголосый, SomeWax
Language : Russian
Default : Yes
Forced : No

Audio #2
ID : 3
Format : AC-3
Format/Info : Audio Coding 3
Mode extension : CM (complete main)
Format settings, Endianness : Big
Codec ID : A_AC3
Duration : 1 h 40 min
Bit rate mode : Constant
Bit rate : 192 kb/s
Channel(s) : 2 channels
Channel positions : Front: L R
Sampling rate : 48.0 kHz
Frame rate : 31.250 FPS (1536 spf)
Compression mode : Lossy
Stream size : 138 MiB (2%)
Title : Многоголосый, DVD Магия
Language : Russian
Default : No
Forced : No

Audio #3
ID : 4
Format : AC-3
Format/Info : Audio Coding 3
Mode extension : CM (complete main)
Format settings, Endianness : Big
Codec ID : A_AC3
Duration : 1 h 40 min
Bit rate mode : Constant
Bit rate : 448 kb/s
Channel(s) : 6 channels
Channel positions : Front: L C R, Side: L R, LFE
Sampling rate : 48.0 kHz
Frame rate : 31.250 FPS (1536 spf)
Compression mode : Lossy
Stream size : 321 MiB (4%)
Language : English
Default : No
Forced : No

Text #1
ID : 5
Format : UTF-8
Codec ID : S_TEXT/UTF8
Codec ID/Info : UTF-8 Plain Text
Duration : 1 h 36 min
Bit rate : 50 b/s
Count of elements : 732
Stream size : 35.8 KiB (0%)
Language : Russian
Default : No
Forced : No

Text #2
ID : 6
Format : UTF-8
Codec ID : S_TEXT/UTF8
Codec ID/Info : UTF-8 Plain Text
Duration : 1 h 37 min
Bit rate : 38 b/s
Count of elements : 861
Stream size : 27.7 KiB (0%)
Language : English
Default : No
Forced : No

Menu
00:00:00.000 : en:Chapter 01
00:03:30.293 : en:Chapter 02
00:06:09.494 : en:Chapter 03
00:11:42.618 : en:Chapter 04
00:14:16.981 : en:Chapter 05
00:19:30.961 : en:Chapter 06
00:24:39.144 : en:Chapter 07
00:27:51.503 : en:Chapter 08
00:35:50.565 : en:Chapter 09
00:44:01.722 : en:Chapter 10
00:52:33.692 : en:Chapter 11
01:04:09.512 : en:Chapter 12
01:10:04.617 : en:Chapter 13
01:16:17.698 : en:Chapter 14
01:22:12.135 : en:Chapter 15
01:36:05.551 : en:Chapter 16



http://i79.fastpic.ru/thumb/2016/0828/f6/0a8a21746128fd5c3263cbdf25a84af6.jpeg
http://i79.fastpic.ru/thumb/2016/0828/52/1965c51b11bb172b11f90bbcb049be52.jpeg
http://i77.fastpic.ru/thumb/2016/0828/91/925ae744f928076488e89a1f25738691.jpeg
http://i80.fastpic.ru/thumb/2016/0828/6d/654f45f572240cb678504879824ffc6d.jpeg

http://i79.fastpic.ru/thumb/2016/0828/02/a736173f9a3a575e3932dd0f8ea2e402.jpeg
http://i80.fastpic.ru/thumb/2016/0828/98/84ec3f1273b2b484cf7e6519f10f6b98.jpeg
http://i79.fastpic.ru/thumb/2016/0828/76/c237cd1b674faa922675e75e12846376.jpeg
http://i80.fastpic.ru/thumb/2016/0828/ab/1f7421f20a4a8e18a603ae97e35986ab.jpeg
Оповестить о раздаче Включить оповещение на почту ( о новом торрент-файле ), когда появится раздача с похожим названием: Великолепная семерка: Квадрология, Magnificent Seven Collection

E-Mail адрес:
Внимание: Если вы не авторизованы, то для вас будет создана временная учетная запись (доступ к аккаунту будет прикреплен в письме).
Похожие файлы
Загрузка / Обновление
Категория Фильмы / HDTV / HD / Blu-Ray RSS лента
Добавлен (1 неделю назад)
Просмотров 0 раз (a)
Взят 0 раз (a)
Файлы 4, 39.19 GB (42 076 675 330 байт)
Раздал ViKa  (Искать торренты)
Участники
Раздают (отдают): 0 (4), Скачивают (качают): 0 (4), Завершено: 0 (420)
Просматривают

« Шеф Адам Джонс / Burnt (2015) BDRip от ExKinoRay | Лицензия -†- ¿? -†- Genesis: Части Целого / Genesis: Together and Apart (2014) HDTVRip 720p | P »

:: Список Комментариев
Нет комментариев.

 Нет комментариев

Счетчики
Яндекс.Метрика Анализ сайта fail-zona.ru

Правообладателям
По всем вопросам сотрудничества, удаления авторских файлов "пачкой", просьба отписаться по адреcу:
abuse@fail-zona.ru

Посетители
Новый пользователь:
NeJulia
Регистрация сегодня:
NeJulia
Активность сегодня:
NeJulia
 
.:Fail-Zona.ru © Tesla v. Pearl (V):.
Страничка сформирована за 2.970 секунд.